STELBERRY M-1100


Производитель: STELBERRY

микрофоны STELBERRY M-1100

Код товара 127216
4937 просмотра(ов)


Розн. цена: 8 890 руб.
Ваша цена: 7 556 руб.
Экономия: 1 334 руб.
Цена монтаж:   Узнать цену
В наличии "Видеоглаз" на Семеновской Малое кол-во


Описание STELBERRY M-1100

STELBERRY M-1100 - активный двунаправленный микрофон с регулировкой чувствительности и направленности для записи переговоров между сотрудниками и клиентами.


Области применения микрофона STELBERRY M-1100

Активный микрофон нового поколения

  • Запись разговоров между кассиром банка и клиентами
  • Запись разговоров между кассиром магазина и покупателями при высоком уровне окружающего шума
  • Запись разговоров между оператором АЗС и клиентами
  • Запись разговоров между продавцами и покупателями в крупных торговых центрах с высоким уровнем шума
  • Запись общения между врачами и пациентами в стоматологических клиниках
  • Запись переговоров врача с пациентами
  • Запись разговоров между консультантами и абонентами в салонах мобильной связи


Представляем новую разработку STELBERRY - активный двунаправленный микрофон STELBERRY M-1100. STELBERRY M-1100, предназначен для качественной записи разговоров между кассирами и клиентами, менеджерами и клиентами.
Микрофон обеспечивает высокую разборчивость речи собеседников, исключая окружающие шумы.
Инженерные образцы STELBERRY M-1100 уже показали отличные результаты при тестовых испытаниях на различных объектах с высоким уровнем окружающего шума, обеспечив отличную разборчивость диалога между собеседниками.
Микрофон снабжен удобными регулировками чувствительности и направленности, позволяющими настроить качество звука в различных вариантах установки.

Сравнительные записи с двунаправленного микрофона STELBERRY M-1100 и обычного активного микрофона

Записи проводились в крупном торговом центре, в одном из магазинов. На стойке консультантов было необходимо регистрировать разговоры между клиентами и консультантами. Высокий уровень окружающего шума не позволил получить даже удовлетворительные записи с обычного микрофона. Направленный микрофон STELBERRY M-1100 прекрасно справился с поставленной задачей, обеспечив высокую разборчивость речи собеседников.Активные направленные микрофоны STELBERRY M-1100 обеспечат высокую разборчивость речи собеседников в местах с высоким уровнем окружающего шума. Наличие регулировок чувствительности и направленности, позволяют настроить параметры звука для любых типов касс или помещений с различным уровнем окружающего шума.


Двунаправленный микрофон STELBERRY M-1100



Параметры аудиозаписи
Format : PCM
Duration : 39s 218ms
Bit rate mode : Constant
Bit rate : 705.6 Kbps
Sampling rate : 44.1 KHz
Bit depth : 16 bits
Stream size : 3.30 MiB



Всенаправленный микрофон стороннего производителя



Параметры аудиозаписи
Format : PCM
Duration : 16s 930ms
Bit rate mode : Constant
Bit rate : 705.6 Kbps
Sampling rate : 44.1 KHz
Bit deBit depth : 16 bits
Stream size : 1.42 MiB

Диаграмма направленности микрофона STELBERRY M-1100 при максимальном значении регулировки

Технические характеристики STELBERRY M-1100

  • Единица измерения: 1 шт
  • Габариты (мм): 100x48x6
  • ПОЛОСА ПРОПУСКАНИЯ (после обработки) - 300....4000 Гц
  • ОСЛАБЛЕНИЕ ОКРУЖАЮЩИХ ШУМОВ - до -26 дБ (20 раз)
  • ДИАПАЗОН РЕГУЛИРОВКИ ЧУВСТВИТЕЛЬНОСТИ - -15...+16 дБ (35 раз)
  • АКУСТИЧЕСКАЯ ДАЛЬНОСТЬ - до 3 метров
  • ВНЕШНЕЕ ЗВУКОВОЕ ДАВЛЕНИЕ - до 94 дБ SPL
  • ЧАСТОТА ОЦИФРОВКИ - 44100 Гц
  • ДИСКРЕТИЗАЦИЯ - 16 бит
  • ОТНОШЕНИЕ СИГНАЛ/ШУМ - 63 дБ
  • ПИТАНИЕ - 5...48 Вольт
  • ПОТРЕБЛЕНИЕ - 15 мА
  • ГАБАРИТЫ - 100х48х6 мм
  • ТЕМПЕРАТУРНЫЙ ДИАПАЗОН - 0...+50 °С


Параметры STELBERRY M-1100



Отзывы о STELBERRY M-1100
Подпишись! Новинки, скидки, акции, предложения!